#TITLE:Only Have Feeling With You;
#SUBTITLE:;
#ARTIST:Fahrenheit & Hebe;
#TITLETRANSLIT:Only Have Feeling With You;
#SUBTITLETRANSLIT:;
#ARTISTTRANSLIT:Fahrenheit & Hebe;
#CREDIT:;
#BANNER:Only Have Feeling With You-bn.png;
#BACKGROUND:Only Have Feeling With You-bg.png;
#LYRICSPATH:;
#CDTITLE:pm4cd.png;
#MUSIC:Only Have Feeling With You.mp3;
#OFFSET:2.100;
#SAMPLESTART:63.080;
#SAMPLELENGTH:20.000;
#SELECTABLE:YES;
#BPMS:0.000=106.000;
#STOPS:;
#BGCHANGES:0.000=Only Have Feeling With You.avi=1.000=1=1=0,
418.500=Only Have Feeling With You-bg.png=1.000=0=0=1,
99999=-nosongbg-=1.000=0=0=0 // don't automatically add -songbackground-
;
// cache tags:
#FIRSTBEAT:4.250;
#LASTBEAT:422.250;
#SONGFILENAME:Songs/Music V.I.P ^_^/Only Have Feeling With You/Only Have Feeling With You.sm;
#HASMUSIC:1;
#HASBANNER:1;
#MUSICLENGTH:238.080;
// end cache tags

//---------------dance-single - ----------------
#NOTES:
     dance-single:
     :
     Hard:
     14:
     1.000,1.000,1.000,0.727,1.000,1262.000,377.000,173.000,0.000,197.000:
0000
0000
0000
0000
,
0000
1000
0000
0010
0000
0000
0000
0000
0000
0000
0000
0100
0000
0010
1000
0000
,
0001
0100
0000
1000
0000
0000
0000
0000
0000
0100
0000
0000
0000
0000
0000
0000
,
0000
0001
0000
0010
0000
0000
0000
0000
0000
0000
0000
0000
0000
0010
0100
1000
,
0100
0010
0000
0001
0100
0000
0010
1000
0000
0001
0010
0100
1000
0100
0010
0001
,
0010
1101
0000
0010
0000
1100
0000
0010
0011
0000
1000
1010
0000
1001
0000
0100
,
0000
0002
0000
0000
0000
0020
0003
0000
0000
0200
0030
0000
0000
2000
0300
0000
,
0000
3011
0000
1000
0000
0101
0000
0010
0110
0000
1000
1100
0000
0101
0000
0010
,
0000
0100
0010
0100
0010
1001
0010
0100
1000
0010
1000
0010
0100
1010
0100
0010
,
0100
1111
0000
1000
0000
1010
0000
0100
0101
0000
0010
1010
0000
1100
0000
0100
,
0000
2000
0000
0000
0000
0200
3000
0000
0000
0020
0300
0000
0000
0002
0030
0000
,
0000
0113
0000
1000
0000
0011
0000
1000
1001
0000
0010
0110
0000
1001
0000
0010
,
0000
0100
0010
0100
0010
1100
0010
0100
1000
0011
0100
0011
0100
0011
0100
0011
,
0100
1011
0000
0100
0000
0011
0000
1100
0000
0010
0000
1001
0000
0100
0000
1000
,
0000
0101
0000
1000
0000
0011
0000
1010
0000
0001
0000
1100
0000
1001
0000
0010
,
0000
0101
0000
0000
0000
0010
0000
1100
0000
0011
0000
1000
0000
0101
0000
0010
,
0000
1001
0000
0100
0000
0011
0000
1001
0000
0000
1100
0011
0000
1001
0000
0010
,
0000
1101
0000
0000
0000
0200
0000
2301
0000
3020
0000
1230
0000
0312
0000
0200
,
0000
2313
0000
3200
0000
1320
0000
0132
0000
0203
0000
0320
0000
2130
0000
3020
,
0000
1100
0000
0100
0000
0101
0000
1100
0000
0001
0000
1001
0000
1100
0000
0031
,
0000
1111
0000
0000
1000
0110
0000
0101
0000
1001
0100
1001
0100
1001
0100
1001
,
0100
1011
0000
0010
0000
0100
0000
0011
0000
1000
0000
0110
0000
0011
0000
1000
,
0000
1010
0000
1000
0100
0011
0000
0001
0010
1100
0000
1010
0000
0101
0000
0100
,
0000
1001
0000
1000
0100
0011
0000
0101
0000
0001
0000
1100
0000
0010
0000
0000
,
0000
1101
0000
1000
0010
0101
0000
0001
0100
1010
0000
1000
0000
0101
0000
0101
,
0000
1011
0000
0010
0100
1010
0000
0101
0000
0100
0000
0011
0000
1100
0000
0000
,
0000
0010
0100
0011
0000
0001
0010
1100
0000
0100
1000
0011
0000
0110
0000
0002
,
0000
1000
0100
0010
0100
1010
0000
0010
0100
1000
0100
1010
0003
0101
0000
0000
,
0000
0000
2220
0000
3330
0000
0001
0000
1010
0000
0101
0000
0000
0000
0222
0000
0000
0333
2220
0000
0000
0000
3330
0000
0000
0000
0200
0000
0300
0000
0020
0000
,
0030
1111
0100
1000
1100
0011
0100
0001
1000
0010
0100
0011
0100
1000
0010
0100
,
0001
1010
0100
0001
1010
0101
0010
0200
0001
0010
0001
1000
0001
0010
0001
1000
,
0310
1111
1000
0001
0110
1001
1000
0100
0010
0001
1000
0101
0010
1000
0100
0001
,
0010
1100
0001
0100
0011
1100
0001
0200
0001
0011
1000
0001
0010
0302
1000
0023
,
0100
1131
0010
1000
0011
1100
0100
0001
0100
0010
1000
0110
0010
0001
0100
0010
,
1000
0011
0100
1000
0110
1001
0002
0100
1000
0100
1000
0010
0100
1013
0001
0100
,
0100
0101
0010
0100
1010
0101
0100
1000
0100
0001
0100
0011
0100
1000
0010
0002
,
1000
1010
0100
0010
1100
0110
0010
0200
0010
2300
0100
3010
0100
0010
0100
0013
,
0100
1111
0010
0100
1100
1010
0100
0010
0001
1000
0010
1100
0001
0010
1000
0010
,
0001
1100
0100
1000
0110
1100
0001
0210
0001
0010
0001
1000
0010
1000
0001
1000
,
0301
1111
0010
1000
0110
1100
0001
0100
0010
1000
0100
0110
1000
0001
0100
1000
,
0010
0011
0100
0010
1010
0011
0100
2001
0010
0100
0001
0101
0010
0200
0010
0302
,
3010
0003
0000
1111
0000
0000
0001
0000
0000
0100
0000
0000
0110
0000
0000
1100
0000
0000
0001
0000
0000
1000
0000
0000
0100
0000
0000
0010
0000
0000
0100
0000
0000
1010
0000
0000
0001
0000
0000
0100
0000
0000
0010
0000
0000
1000
0000
0000
,
0010
0011
1000
0100
0110
0101
1000
0020
1000
0100
1000
0001
0100
0001
1000
0001
,
1030
1111
0001
0100
0110
1010
0100
0010
0001
0100
0010
1001
0100
0010
0100
0001
,
0010
2200
0010
0001
0010
0011
0001
0010
0001
3311
1000
0100
1000
0100
0010
0001
,
0010
1111
0000
1000
0010
0100
0001
0100
0010
1000
0010
0100
0001
0100
0010
1000
,
0010
1102
0000
0000
0000
0200
0000
0000
0000
0020
0000
0003
0000
2000
0000
0300
,
0000
0030
0000
3111
0000
0000
1000
0000
0000
0100
0000
0000
1000
0000
0000
0010
0000
0000
0100
0000
0000
1000
0000
0000
0100
0000
0000
0010
0000
0000
0001
0000
0000
0100
0000
0000
0010
0000
0000
0100
0000
0000
0001
0000
0000
0010
0000
0000
,
0100
1111
1000
0100
1000
0100
0010
0001
0010
0100
0001
0010
0100
1000
0100
0010
,
0001
1111
0100
0100
0010
0110
0001
0001
0010
0010
0100
0100
1000
1001
0001
0001
,
0010
1211
0000
0000
0000
0021
0000
0000
0000
2300
0000
0000
0000
0102
0030
0000
,
0000
3003
0000
1111
0000
0000
1000
0000
0000
0100
0000
0000
0010
0000
0000
0001
0000
0000
0010
0000
0000
0100
0000
0000
1000
0000
0000
0100
0000
0000
0010
0000
0000
0001
0000
0000
0010
0000
0000
0100
0000
0000
1000
0000
0000
0100
0000
0000
,
0010
1101
0010
0100
0010
1000
0001
0100
0001
1100
0001
1100
0001
1100
0001
1100
,
0001
1111
0000
1000
0000
0101
0000
0010
0000
1100
0000
0100
0000
1010
0000
0100
,
0000
1110
0000
0010
0000
0101
0000
1010
0000
1000
0000
0011
0000
1100
0000
0001
,
0000
1111
0000
0010
0000
1010
0000
0110
0000
0001
0000
1100
0000
0110
0000
0100
,
0000
0011
0000
0100
0000
1010
0000
0110
0000
0011
0100
0011
0000
1010
0000
0001
,
0000
1101
0000
0001
0000
0200
0000
1302
0000
0023
0000
2130
0000
0201
0000
0320
,
0000
3132
0000
0100
0000
0020
0003
0132
0000
0100
0000
0120
0000
2033
0000
0020
,
0000
3231
0000
0001
0000
0020
0000
2331
0000
3020
0000
1230
0000
0302
0000
0000
,
0000
1003
0000
0100
0000
0010
0000
0000
0001
1000
0001
1000
0000
0001
0000
0010
,
0000
1111
0000
0010
0001
1010
0000
0011
0000
0010
0000
0101
0000
1010
0000
0100
,
0000
0010
0001
1100
0000
0001
0100
1010
0000
0100
1000
0011
0000
1100
0000
0010
,
0000
1111
0000
0010
0100
1100
0000
0100
0010
0011
0000
0100
0000
1010
0000
0001
,
0000
1011
0000
0100
0010
1010
0000
0010
0100
0101
0010
0011
0000
0100
0000
0010
,
0000
0111
0000
1000
0010
0101
0000
0011
0000
0010
0000
1100
0000
0110
0000
0001
,
0000
1110
0000
1000
0100
1100
0000
0001
0010
0011
0000
1001
0000
0110
0000
0010
,
0000
1011
0000
1100
0010
0001
0000
0011
0100
1000
0100
0010
0000
1001
0000
0000
,
0000
0000
0000
1111
0000
0000
0000
0000
0000
0110
0000
0000
1001
0000
0000
0110
0000
0000
0000
0000
0000
1111
0000
0000
0000
0000
0000
1111
0000
2000
0000
0200
0000
3020
0000
0302
0000
0030
0000
2003
0000
0000
3000
0000
0000
0200
0000
0000
,
0300
1111
0001
0010
0110
1100
0001
0010
0100
0010
0001
1010
0010
0100
1000
0010
,
0100
0011
0001
0010
0101
0110
0010
0200
1000
0010
1000
0001
0010
0001
0010
1000
,
0010
0300
0000
1111
0000
0000
0100
0000
0000
0010
0000
0000
0110
0000
0000
1010
0000
0000
0010
0000
0000
0001
0000
0000
0100
0000
0000
1000
0000
0000
0010
0000
0000
0110
0000
0000
0001
0000
0000
1000
0000
0000
0100
0000
0000
0010
0000
0000
,
0001
0101
0010
0100
1100
0101
1000
0102
0100
1000
0010
1100
1000
0200
0010
2300
,
0100
3003
0000
1111
0000
0000
0100
0000
0000
1000
0000
0000
0110
0000
0000
1100
0000
0000
0001
0000
0000
0010
0000
0000
0100
0000
0000
1000
0000
0000
0010
0000
0000
0110
0000
0000
0001
0000
0000
1000
0000
0000
0010
0000
0000
0100
0000
0000
,
0001
1001
0010
0100
0011
0110
0001
2010
0001
0100
0010
0101
0001
0110
0010
0001
,
0001
3101
0010
1000
0101
1010
0001
0010
0100
1000
0010
1100
0001
0010
0100
2000
,
0001
0110
0100
0010
0101
0110
0100
0020
0001
0230
0001
0310
0001
0010
3100
1000
,
0100
1111
1000
0010
1010
0110
0010
0001
0010
1000
0100
1001
0100
0001
0010
0100
,
1000
1100
0100
0010
0011
0110
0100
0002
0100
0010
1000
0100
0010
0200
1000
2310
,
0100
3003
0000
1111
0000
0000
0010
0000
0000
0100
0000
0000
1100
0000
0000
0110
0000
0000
0100
0000
0000
0001
0000
0000
0100
0000
0000
0010
0000
0000
1000
0000
0000
0110
0000
0000
0100
0000
0000
0010
0000
0000
0001
0000
0000
0100
0000
0000
,
1000
0111
0010
0100
0011
1010
0100
2000
0010
0100
0001
0010
0001
0200
0010
0302
,
0100
3003
0000
1111
0000
0000
0001
0000
0000
1000
0000
0000
0101
0000
0000
0110
0000
0000
0001
0000
0000
0100
0000
0000
0010
0000
0000
1000
0000
0000
0010
0000
0000
1001
0000
0000
1000
0000
0000
0100
0000
0000
0001
0000
0000
0010
0000
0000
,
0100
0101
0010
0100
0101
0110
0100
0020
0100
1000
0100
0101
1000
0100
0001
2000
,
0100
3030
0000
1111
0000
0000
0001
0000
0000
0100
0000
0000
0011
0000
0000
1100
0000
0000
0010
0000
0000
0001
0000
0000
1000
0000
0000
0010
0000
0000
0100
0000
0000
1010
0000
0000
0001
0000
0000
0100
0000
0000
1000
0000
0000
0010
0000
0000
,
0001
1110
0001
0100
1001
0110
0001
1010
0100
0001
0010
0100
0010
2000
0000
3020
,
0000
0000
0000
0000
0032
0000
0000
0000
0000
0000
0000
0000
0200
0000
0000
0000
0000
0000
0000
0000
0320
0000
0000
0000
0000
0000
0000
0000
2030
0000
0000
0000
0000
0000
0000
0000
3220
0000
0000
0000
0000
0000
0000
0030
0320
0000
0000
0000
0000
0000
0000
0000
0230
0000
0000
0000
0000
0000
0000
0000
2300
0000
0000
0000
,
0000
3200
0000
0320
0000
2030
0000
3220
0000
0000
0000
0300
0030
2003
0000
0200
,
0000
0320
0000
0032
0000
0203
0000
0302
0000
0023
0000
0230
0000
0302
0000
0023
,
0000
0032
0000
0203
0000
0320
0000
0002
0000
0000
0030
0000
0000
3023
0000
0032
,
0000
0223
0030
0020
0000
2032
3000
2003
0000
3022
0003
0032
0000
2023
0030
3020
,
0000
2032
3000
2003
0000
3022
0030
0023
0000
2002
0000
0030
0000
3000
0000
1303
,
1000
1100
0000
0002
0000
0203
0000
0302
0000
0000
0000
0203
0000
0320
0000
0032
,
0000
0000
0000
0000
1100
0000
0000
0000
0010
0000
0000
0000
1000
0000
0000
0000
0010
0000
0000
0000
1103
0000
0000
0000
0000
0000
0000
0000
2220
0000
0000
0000
3330
0000
0000
0000
0222
0000
0000
0333
1010
0000
0000
0000
0101
0000
0000
0000
1010
0000
0000
0000
0101
0000
0000
0000
1010
0000
0000
0000
0101
0000
0000
0000
,
1010
1111
1000
0010
0110
0101
0010
0001
0010
0100
1000
0101
0100
0010
1000
0100
,
0010
1001
0100
1000
0011
0110
1000
0120
0100
1000
0100
0001
0100
2000
0001
3200
,
0001
0330
0000
1111
0000
0000
0100
0000
0000
0010
0000
0000
1001
0000
0000
0101
0000
0000
0010
0000
0000
0001
0000
0000
0010
0000
0000
1000
0000
0000
0010
0000
0000
0110
0000
0000
0001
0000
0000
0010
0000
0000
0100
0000
0000
1000
0000
0000
,
0010
1110
0001
1000
0101
0110
0010
0200
0001
1000
0010
1010
0001
0010
0001
1000
,
0010
0300
0000
1111
0000
0000
0010
0000
0000
0100
0000
0000
0110
0000
0000
1100
0000
0000
0001
0000
0000
0010
0000
0000
0100
0000
0000
0001
0000
0000
1000
0000
0000
0110
0000
0000
0010
0000
0000
0001
0000
0000
0100
0000
0000
0010
0000
0000
,
1000
0111
0010
0100
1010
0110
0010
0002
0100
1000
0010
0110
1000
1100
0010
2000
,
0100
3003
0000
1111
0000
0000
0001
0000
0000
0100
0000
0000
1001
0000
0000
0101
0000
0000
0010
0000
0000
2000
0000
0000
0001
0000
0000
0010
0000
0000
0100
0000
0000
0011
0000
0000
0001
0000
0000
0100
0000
0000
0010
0000
0000
0100
0000
0000
,
0001
3000
0000
2112
0000
0000
0100
0000
0000
0010
0000
0000
0100
0000
0000
0110
0000
0000
0010
0000
0000
0110
0000
0000
0010
0000
0000
0100
0000
0000
0010
0000
0000
0100
0000
0000
0010
0000
0000
0100
0000
0000
0010
0000
0000
0100
0000
0000
,
0010
3003
0000
1111
0000
0000
1000
0000
0000
0100
0000
0000
0010
0000
0000
1001
0000
0000
0010
0000
0000
0100
0000
0000
1000
0000
0000
0101
0000
0000
0010
0000
0000
0100
0000
0000
1000
0000
0000
0101
0000
0000
0010
0000
0000
0001
0000
0000
,
1000
0000
0101
0000
0010
0000
0001
0000
0010
0000
0101
0000
1000
0000
0000
0000
1000
0100
0010
0000
0001
0000
0010
0000
0100
0010
0001
0000
1000
0000
0100
0000
,
0010
1001
0010
0100
1000
0101
0010
0100
1000
0101
0010
0001
1000
0101
0010
0001
,
0010
0000
0101
0000
1000
0000
0001
0000
0010
0000
0101
0000
1000
0000
0100
0000
0010
0000
1001
0000
0010
0000
0100
0000
0010
0000
0101
0000
1000
0010
0100
0000
,
2022
0000
0000
0000
0000
0000
0000
0000
0000
3033
0000
0000
0000
0000
0000
0000
;

//---------------dance-single - ----------------
#NOTES:
     dance-single:
     :
     Easy:
     1:
     0.000,0.000,0.000,0.000,0.000,0.000,0.000,0.000,0.000,0.000:
0000
0000
0000
0000
;

//---------------dance-single - Copied from----------------
#NOTES:
     dance-single:
     Copied from:
     Medium:
     1:
     0.000,0.000,0.000,0.000,0.000,0.000,0.000,0.000,0.000,0.000:
0000
0000
0000
0000
;
